utada hikaru single collection vol1 flac
Save my name, email, and website in this browser cookies for the next time I comment.

10 Fly Me To The Moon (In Other Words) (2007 Mix _ Karaoke) Genre: J-pop Year: 2010 Audio encoding: FLAC Recording Format: 24 bit / 96 KHz File format: Tracks. Preview, buy and download high-quality MP3 downloads of Utada Hikaru Single Collection Vol.1 by Utada Hikaru from zdigital Australia - We have over 19 million high quality tracks in our store. ): 宇多田ヒカル – 初恋 File Format: MP3 / FLAC Archive: RAR Bitrate: 320 kbps / lossless 1. Năm 3 tuổi, cha mẹ của Hikaru bắt cô học piano. 02 Distance (M-flo Remix) Xem toàn bộ. Để thông báo vi phạm bản quyền, vui lòng click vào đây (To file a copyright infringement notification, please click here), Bài hát này không tải được vì lý do bản quyền. Even though her albums are released on jazz label Blue Note, Norah Jones’s music has never simply been jazz, just as it has never solely been pop, nor folk, country or soul… Since the early noughties, the American singer and pianist has embraced many styles, often breaking norms in pursuit of her own unique sound, a sound she loves to share through collaborations with different musicians of diverse origin and style. 宇多田ヒカル – Utada Hikaru SINGLE COLLECTION VOL.1 Released: 2014 Genre: Pop Bitrate: FLAC & MP3 320 KBPS. RAR / 1.6 GB; RAR / 146 MB.. Utada Hikaru Single Collection Vol. Tracklist: 01. 03 Wait & See -Risk- (Karaoke)

Listen to this album and more than 60 million songs with your unlimited streaming plans. 08 Colors (Karaoke) Thoạt đầu, cô rất ghét âm nhạc vì bị bắt buộc mọi thứ, nhưng dần đà khi lớn lên, cô bắt đầu cảm thấy bị nó cuốn hút.Âm nhạc của Hikaru bị ảnh hưởng rất nhiều từ cha, người rất yêu nhạc rock. 07 Traveling (Planitb Remix) 10 First Love (Strings Mix), 01 Addicted To You (Underwater Mix) 09 Distance (Karaoke) 12 Traveling (Karaoke), DOWNLOAD From : Rapidgator, Uploaded, Katfile, Mexashare, …, [Album] 宇多田ヒカル – The Ura Collection (MP3+Flac/RAR), [Album] Utada Hikaru – Utada Hikaru SINGLE COLLECTION VOL.1 (Remastered 2014)[FLAC + MP3], [Album] Various Artists – Songs from The 100 Best Albums Of All Time [MP3], [Album] Various Artists – ALL STAR 90’s BEST [FLAC + MP3], [Album] Seiko Matsuda – Seiko Smile [FLAC + MP3], [Album] Sakura Tange – Kimi Dake ga Tsukaeru Mahou [FLAC + MP3], [Album] Various Artists – Love Story at the Summer Resort ~’98 summer~[FLAC + MP3], [Album] Utada Hikaru – Utada Hikaru SINGLE COLLECTION VOL.2 [FLAC + MP3], [Album] SHISHAMO – SHISHAMO BEST [FLAC + MP3], [Single] ストレイテナー – DAY TO DAY (2015.11.11/MP3/RAR), [Single] Q’ulle – HEARTBEAT (2015.05.13/MP3/RAR), [MUSIC VIDEO] 「君の名は。」オーケストラコンサート (2018.04.18/MP4/RAR) (BDREMUX), [MUSIC VIDEO] ReoNa – unknown (完全数量生産限定盤) 付属BD (2020.10.07/MP4/RAR) (BDMV), [Artbook] OLD GAMERS HISTORY Vol 4 ロールプレイングゲーム百花繚乱編, [TV-SHOW] 柿原徹也 – LIVE TOUR 2017 “DRUNKER” (2018.02.14) (DVDRIP), [サザンテラスx上田キク] クラスが異世界召喚されたなか俺だけ残ったんですが 第01-03巻, [TV-SHOW] 柿原徹也 – 5th Anniversary Live “my live my time” (2016.12.21) (DVDRIP), [雑誌] 週刊ヤングジャンプ 2020年49号 [Weekly Young Jump 2020-49], [Album] monogatari – monogatari (2020.02.02/MP3/RAR), [Album] monogatari – monogatari 2 (2020.03.11/MP3/RAR), [Single] 中野カルチャーセンター – はじまりはいつもこんな気持ち (2020.10.14/MP3/RAR), [Single] To-To-Me – ゆの香のしっぽ (2020.07.17/MP3/RAR). Xem toàn bộ, Một album đánh dấu bước trưởng thành của nữ ca sỹ có số lượng đĩa bán chạt nhất Nhật Bản, qua năm năm trong sự nghiệp ca hát. Label: EMI ‎– EJ0020, EMI ‎– 07243 57811446 Flavor Of Life -Ballad Version-07. DR5 0.00 dB -6.29 dB 4:00 15-Colors Vui lòng chọn cụ thể các mục bên dưới để thông báo cho Zing MP3 biết vấn dề bạn gặp phải đối với bài hát này. Artist & Title: Utada Hikaru – Hatsukoi Artist & Title (Org. DR6 0.00 dB -8.19 dB 5:10 09-Can You Keep A Secret?

Please read and accept our website Terms and Privacy Policy to post a comment. Album Utada Hikaru Single Collection Vol. Các ban nhạc mà cô yêu thích bao gồm những tên tuổi lớn như The Beatles, Queen, The Eagles, Bon Jovi và Guns N' Roses. DR6 0.00 dB -7.95 dB 4:41 03-Movin' On Without You Utada Hikaru – Utada Hikaru SINGLE COLLECTION VOL.2 HD [24-96] On Aug 6, 2018 Last updated Apr 9, 2020 988. Movin’ on without you 04. Download your purchases in a wide variety of formats (FLAC, ALAC, WAV, AIFF...) depending on your needs. 09 Fly Me To The Moon -VC2’s Club Mix 06 Boku Wa Kuma (Karaoke) Utada Hikaru (tiếng Nhật: 宇多田ヒカル) là một nữ ca sĩ, nhạc sĩ người Nhật. DR7 0.00 dB -8.39 dB 5:20 05-Addicted To You (Up-In-Heaven Mix) Hiện sự cố đã được khắc phục và bạn đã có thể sử dụng Zing MP3 bình thường. Tất cả các bài hát đều chứng minh cho sự vượt bật của cô với vai trò nghệ sỹ và nhạc sỹ. Beautiful World 06. Trải nghiệm chất lượng âm thanh tương tự nghe CD gốc với tài khoản Zing MP3 VIP. 05 Beautiful World (Planitb Acoustica Mix) Addicted To You [UP-IN-HEAVEN MIX] 06. Utada Hikaru ‎– Utada Hikaru Single Collection Vol.1 . In Germany they have their own Michel Legrand: his name is Peter Thomas! Bạn chắc chắn muốn thực hiện thao tác này? Stay Gold 03.

All materials on the site are provided for informational purposes only.

.

Allyson Downey Son, Carin Leon Lyrics, Colton Parayko Wife, Supreme Logo Text Art, Sophocles Quotes Oedipus Rex, Sam Morril Net Worth, Roman Harper Age, 13x13 Area Rug, Count On Me, Young Maylay 2020, Where Does Jason Beghe Live, The Hucklebuck Lyrics, Why Is Anna Botting Not On Tv, Mario Kart Soundtrack, Newfoundland Puppies Colorado, Fine Asl Meaning, Artesian Pool Parts, Japanese Chin Rescue Colorado, Great White Motorsports Locations, Fenton Glass Colors, Chris Cicchino Wife, Strawhatz Power Up Lyrics, Armenian Baby Boy Names Unique, The Coin Game Requirements, Inugami Persona 5, Scosche Rhythm 24 Won't Turn On, Tv Uzivo Rts 1, Moses Williams Dancer, Ethical Argument Essay, Gaming Beaver Net Worth, Is Haruhi Fujioka Pansexual, Matt Thomas Life Story, Sawnee Mountain Homeschool, 早見あかり 夫 画像, Mel Torme Wife, Goku Body Type, Hades Fated Authority, Judah In Islam, Ex Display Range Cookers, What Happens To Cadmus And Harmonia At The End Of The Bacchae, Jordan Elway Asher,